Consenso all'uso dei cookies

SITO1 -- SITO2 -- Forum2 -- CercaGlobale -- Informativa su Cookie e Privacy

Questo Forum1 è in sola lettura -- Usa il Forum2


Valutazione discussione:
  • 0 voto(i) - 0 media
  • 1
  • 2
  • 3
  • 4
  • 5
Applicazione per compressione video Linux
#1
Ho una serie di film di fantascienza che ogni tanto mi piace riguardare ma essendo in
formato .avi mi occupano parecchia memoria per cui cercavo un'applicazione in linux per
comprimere i files che da quel che ho letto dovrebbe permettermi di comprimere in mpeg4
H 264 che dovrebbe essere la compressione audio video con il miglior rapporto mi potreste
dare un consiglio su cosa utilizzare
grazie, max ExclamationIdea
[Immagine: http://i62.tinypic.com/2jed1qs.png]
Sono maldestro....il peggio è che sono pure mancino!! 

Cita messaggio
#2
ciao, quello che hai provato l'altro giorno. winff
Cita messaggio
#3
Ciao Mario,
a me su Winff manca la compressione che mi avevi consigliato quella mpeg4 Higt quality
cosa dovrei fare per averla?
[Immagine: http://i62.tinypic.com/2jed1qs.png]
Sono maldestro....il peggio è che sono pure mancino!! 

Cita messaggio
#4
è vero tu non hai pclx ( ma quando la provi ) scherzo ovviamente. prova a seguire questo:
http://www.istitutomajorana.it/forum/Thr...#pid235499
hai la 14.04 vero?
Cita messaggio
#5
Prova con questo:

http://www.istitutomajorana.it/index.php...&Itemid=33

Guarda pure:HandBrake 0.9.8 Video Converter en Ubuntu

http://advenis.wordpress.com/2013/01/10/...ntu-linux/
Cita messaggio
#6
Si ho la 14.04
ora provo a guardare domani vi faccio sapere perchè sono su windows ciao grazie e
buonanotte
[Immagine: http://i62.tinypic.com/2jed1qs.png]
Sono maldestro....il peggio è che sono pure mancino!! 

Cita messaggio
#7
Rieccomi, evidentemente dev'essere che io con i programmi di Linux che si occupano di video non sono fortunato Format Junkie si blocca come in immagine e non va avanti
mentre Winff che ha necessità di ffmpeg quando cerco di caricarli il terminale continua a caricare senza arrivare mai a nulla ma solo occupando memoria e propone questa sequenza di immagini più o meno al che lo fermo e quando cerco di caricare un film con Winff viene fuori questo nel terminale


avconv version 9.16-6:9.16-0ubuntu0.14.04.1, Copyright © 2000-2014 the Libav developers
built on Aug 10 2014 18:19:26 with gcc 4.8 (Ubuntu 4.8.2-19ubuntu1)
Input #0, avi, from '/media/DATIntfs/Dtorrent/4 SMISTA/Killing.Season.2013.iTALiAN.BDRip.XviD-TRL[MT].avi':
Duration: 01:30:45.25, start: 0.000000, bitrate: 2155 kb/s
Stream #0.0: Video: mpeg4 (Advanced Simple Profile), yuv420p, 656x272 [PAR 1:1 DAR 41:17], 24 tbn, 23.98 tbc
Stream #0.1: Audio: ac3, 48000 Hz, 5.1, fltp, 640 kb/s
Unknown encoder 'libvo_aacenc'
Premere INVIO per continuare


Allegati Anteprime
               
[Immagine: http://i62.tinypic.com/2jed1qs.png]
Sono maldestro....il peggio è che sono pure mancino!! 

Cita messaggio
#8
ma hai installato ffmpeg, tutti e due i programmi lo usano.
Cita messaggio
#9
Ho seguito quello che hai postato
http://www.istitutomajorana.it/forum/Thr...id235499ma quello che ti ho mostrato nelle immagini è quello che succede quando cerco di installare ffmpeg il terminale continua a ripetere quella sequenza senza mai finire
[Immagine: http://i62.tinypic.com/2jed1qs.png]
Sono maldestro....il peggio è che sono pure mancino!! 

Cita messaggio
#10
mi spiace, non saprei cosa dirti. magari apri un post dedicato a come installare ffmpeg. sulla mia è standar nei pacchetti, non ho mai tribulato.
Cita messaggio


Vai al forum:


Utenti che stanno guardando questa discussione: 1 Ospite(i)