Consenso all'uso dei cookies

SITO1 -- SITO2 -- Forum2 -- CercaGlobale -- Informativa su Cookie e Privacy

Questo Forum1 è in sola lettura -- Usa il Forum2


Valutazione discussione:
  • 0 voto(i) - 0 media
  • 1
  • 2
  • 3
  • 4
  • 5
WINFF.
#1
Utilizzo Ubuntu 12.04. Non riesco a far funzionare il programma WINFF che nelle precedenti versioni mi dava grandi soddisfazioni. In particolare, non riesco a convertire i file "DV" generati da Kino in dvd, avi etc...:
lancio winff, seleziono il file da convertire e si apre una finestra terminale con il seguente messaggio:


This program is only provided for compatibility and will be removed in a future release. Please use avconv instead.
[dv @ 0x1ed09c0] Estimating duration from bitrate, this may be inaccurate
Input #0, dv, from '/home/elvis/MINIDV36/capture2012.03.28_23-48-28.dv':
Duration: 00:00:34.40, start: 0.000000, bitrate: 28800 kb/s
Stream #0.0: Video: dvvideo, yuv420p, 720x576, 28800 kb/s, PAR 16:15 DAR 4:3, 25 tbr, 25 tbn, 25 tbc
Stream #0.1: Audio: pcm_s16le, 48000 Hz, 2 channels, s16, 1536 kb/s
[buffer @ 0x1ed7ee0] w:720 h:576 pixfmt:yuv420p
[scale @ 0x1ed7020] w:720 h:576 fmt:yuv420p -> w:640 h:480 fmt:yuv420p flags:0x4
[libxvid @ 0x1ed22a0] [Eval @ 0x7fff310e3700] Undefined constant or missing '(' in 'aic'
[libxvid @ 0x1ed22a0] Unable to parse option value "aic"
[libxvid @ 0x1ed22a0] Error setting option trellis to value -aic.
Output #0, avi, to '/home/elvis/capture2012.03.28_23-48-28.avi':
Stream #0.0: Video: mpeg4 (hq), yuv420p, 640x480 [PAR 1:1 DAR 4:3], q=3-5, 1500 kb/s, 90k tbn, 29.97 tbc
Stream #0.1: Audio: libmp3lame, 48000 Hz, 2 channels, s16, 200 kb/s
Stream mapping:
Stream #0.0 -> #0.0
Stream #0.1 -> #0.1
Error while opening encoder for output stream #0.0 - maybe incorrect parameters such as bit_rate, rate, width or height
Premere INVIO per continuare

Qualcuno mi può aiutare?
Grazie.
Cita messaggio
#2
Guarda qui.
Ogni fallimento avvicina sempre più alla meta... Arrendersi subito equivale a non provare affatto.

Il bisogno di conoscere e scoprire, è la fiamma che alimenta la fornace che è il cervello umano.
Cita messaggio
#3
ciao, se ti può aiutare: formatjunkie
http://www.lffl.org/2012/11/format-junki...porto.html
Cita messaggio


Vai al forum:


Utenti che stanno guardando questa discussione: 1 Ospite(i)