Consenso all'uso dei cookies

SITO1 -- SITO2 -- Forum1 -- CercaGlobale -- Informativa su Cookie e Privacy


Valutazione discussione:
  • 0 voto(i) - 0 media
  • 1
  • 2
  • 3
  • 4
  • 5
Masterizzazione video X264 Mkv
#1
Ciao a tutti,
uso devede su Ubuntu 14.04 per masterizzare dvd. Con un file vide di questo tipo "x264 mkv" mi dice che 'è un bug mencoder. Ho installato ffmpeg, ma niente da fare. Poi ho provato con Format Junkie, il quale converte il file in avi, ma perdo l'audio. Potete darmi qualche suggerimento? Per favore
Cita messaggio
Grazie da:
#2
Usa K3B oppure Brasero, sono i migliori, anche XBurn... Ciao
Cita messaggio
Grazie da:
#3
Ho tentato anche con K3B e Brasero, ma niente da fare. Forse non li so usare. Xburn non viene trovato da sinaptic. Boh!?
Cita messaggio
Grazie da:
#4
ciao. fai un tentativo, installa winff e con lui converti il tuo file mkv in mpeg avi. controlla poi che si veda e si senta, se tutto in ordine riprova con devede.
Cita messaggio
Grazie da:
#5
(24-12-2014,00:05 )dxgiusti Ha scritto: ciao. fai un tentativo, installa winff e con lui converti il tuo file mkv in mpeg avi. controlla poi che si veda e si senta, se tutto in ordine riprova con devede.

Grazie della risposta.
Quando chiedo di convertire a winff mi compare questo dal terminale. Clicco invio, ma non succede nulla


Codice:
avconv version 9.16-6:9.16-0ubuntu0.14.04.1+fdkaac, Copyright (c) 2000-2014 the Libav developers
 built on Aug 11 2014 23:12:18 with gcc 4.8 (Ubuntu 4.8.2-19ubuntu1)
[matroska,webm @ 0x1bf8e20] max_analyze_duration reached
Guessed Channel Layout for  Input Stream #0.1 : stereo
Input #0, matroska,webm, from '/media/giampaolo/40E137CF4AB993F2/film/transformers/Transformers.Age.of.Extinction.2014.720p.HD-WEBDL.iTALiAN.MD-EnG.iTUNES.x264.TrTd_TeaM/Transformers.Age.of.Extinction.2014.720p.HD-WEBDL.iTALiAN.MD-EnG.iTUNES.x264.TrTd_TeaM.mkv':
 Duration: 02:45:11.01, start: 0.000000, bitrate: N/A
   Chapter #0.0: start 0.000000, end 411.000000
   Metadata:
     title           : Chapter 1
   Chapter #0.1: start 411.000000, end 873.000000
   Metadata:
     title           : Chapter 2
   Chapter #0.2: start 873.000000, end 1297.000000
   Metadata:
     title           : Chapter 3
   Chapter #0.3: start 1297.000000, end 1813.000000
   Metadata:
     title           : Chapter 4
   Chapter #0.4: start 1813.000000, end 2325.000000
   Metadata:
     title           : Chapter 5
   Chapter #0.5: start 2325.000000, end 2768.000000
   Metadata:
     title           : Chapter 6
   Chapter #0.6: start 2768.000000, end 3099.000000
   Metadata:
     title           : Chapter 7
   Chapter #0.7: start 3099.000000, end 3549.000000
   Metadata:
     title           : Chapter 8
   Chapter #0.8: start 3549.000000, end 4068.000000
   Metadata:
     title           : Chapter 9
   Chapter #0.9: start 4068.000000, end 4514.000000
   Metadata:
     title           : Chapter 10
   Chapter #0.10: start 4514.000000, end 5005.000000
   Metadata:
     title           : Chapter 11
   Chapter #0.11: start 5005.000000, end 5354.000000
   Metadata:
     title           : Chapter 12
   Chapter #0.12: start 5354.000000, end 5836.000000
   Metadata:
     title           : Chapter 13
   Chapter #0.13: start 5836.000000, end 6275.000000
   Metadata:
     title           : Chapter 14
   Chapter #0.14: start 6275.000000, end 6685.000000
   Metadata:
     title           : Chapter 15
   Chapter #0.15: start 6685.000000, end 7068.000000
   Metadata:
     title           : Chapter 16
   Chapter #0.16: start 7068.000000, end 7488.000000
   Metadata:
     title           : Chapter 17
   Chapter #0.17: start 7488.000000, end 7955.000000
   Metadata:
     title           : Chapter 18
   Chapter #0.18: start 7955.000000, end 8464.000000
   Metadata:
     title           : Chapter 19
   Chapter #0.19: start 8464.000000, end 8928.000000
   Metadata:
     title           : Chapter 20
   Chapter #0.20: start 8928.000000, end 9429.000000
   Metadata:
     title           : Chapter 21
   Chapter #0.21: start 9429.000000, end 9911.019000
   Metadata:
     title           : Chapter 22
   Stream #0.0(eng): Video: h264, 1280x532, PAR 1:1 DAR 320:133, 24 fps, 24 tbr, 1k tbn (default)
   Metadata:
     BPS             : 902123
     BPS-eng         : 902123
     DURATION        : 02:44:56.914000000
     DURATION-eng    : 02:44:56.914000000
     NUMBER_OF_FRAMES: 237515
     NUMBER_OF_FRAMES-eng: 237515
     NUMBER_OF_BYTES : 1116029689
     NUMBER_OF_BYTES-eng: 1116029689
     _STATISTICS_WRITING_APP: mkvmerge v7.1.0 ('Good Love') 64bit built on Jul 27 2014 13:06:55
     _STATISTICS_WRITING_APP-eng: mkvmerge v7.1.0 ('Good Love') 64bit built on Jul 27 2014 13:06:55
     _STATISTICS_WRITING_DATE_UTC: 2014-09-16 11:27:42
     _STATISTICS_WRITING_DATE_UTC-eng: 2014-09-16 11:27:42
     _STATISTICS_TAGS: BPS DURATION NUMBER_OF_FRAMES NUMBER_OF_BYTES
     _STATISTICS_TAGS-eng: BPS DURATION NUMBER_OF_FRAMES NUMBER_OF_BYTES
   Stream #0.1(ita): Audio: mp3, 48000 Hz, stereo, s16p, 128 kb/s (default)
   Metadata:
     BPS             : 128000
     BPS-eng         : 128000
     DURATION        : 02:40:04.896000000
     DURATION-eng    : 02:40:04.896000000
     NUMBER_OF_FRAMES: 400204
     NUMBER_OF_FRAMES-eng: 400204
     NUMBER_OF_BYTES : 153678336
     NUMBER_OF_BYTES-eng: 153678336
     _STATISTICS_WRITING_APP: mkvmerge v7.1.0 ('Good Love') 64bit built on Jul 27 2014 13:06:55
     _STATISTICS_WRITING_APP-eng: mkvmerge v7.1.0 ('Good Love') 64bit built on Jul 27 2014 13:06:55
     _STATISTICS_WRITING_DATE_UTC: 2014-09-16 11:27:42
     _STATISTICS_WRITING_DATE_UTC-eng: 2014-09-16 11:27:42
     _STATISTICS_TAGS: BPS DURATION NUMBER_OF_FRAMES NUMBER_OF_BYTES
     _STATISTICS_TAGS-eng: BPS DURATION NUMBER_OF_FRAMES NUMBER_OF_BYTES
   Stream #0.2(eng): Audio: aac, 48000 Hz, stereo, fltp
   Metadata:
     title           : +14000
     BPS             : 64061
     BPS-eng         : 64061
     DURATION        : 02:44:57.035000000
     DURATION-eng    : 02:44:57.035000000
     NUMBER_OF_FRAMES: 232183
     NUMBER_OF_FRAMES-eng: 232183
     NUMBER_OF_BYTES : 79251797
     NUMBER_OF_BYTES-eng: 79251797
     _STATISTICS_WRITING_APP: mkvmerge v7.1.0 ('Good Love') 64bit built on Jul 27 2014 13:06:55
     _STATISTICS_WRITING_APP-eng: mkvmerge v7.1.0 ('Good Love') 64bit built on Jul 27 2014 13:06:55
     _STATISTICS_WRITING_DATE_UTC: 2014-09-16 11:27:42
     _STATISTICS_WRITING_DATE_UTC-eng: 2014-09-16 11:27:42
     _STATISTICS_TAGS: BPS DURATION NUMBER_OF_FRAMES NUMBER_OF_BYTES
     _STATISTICS_TAGS-eng: BPS DURATION NUMBER_OF_FRAMES NUMBER_OF_BYTES
[buffer @ 0x1bf2ba0] Invalid pixel format string '-1'
Error opening filters!
Premere INVIO per continuare
Cita messaggio
Grazie da:
#6
purtroppo non sono cosi bravo per dirti cosa non funziona...... vedo che hai qualche riferimento a itunes, non sarà un file protetto?
controlla in gestore pacchetti ( synaptic ) se hai installato:
x264
libdvdcss2
poi mi sorge un dubbio, tu hai installato ubuntu oppure la versione nostra ubuntu plus remix. ti chiedo questo in quanto le nostre versioni sono complete di codec, librerie ecc., ubuntu standar è tutto da configurare.
Cita messaggio
Grazie da: giampaolo.ranaldi
#7
Ok, provo con x264 e libdvdcss2. Il mio ubuntu è quello scaricato da ubuntu.it, non il remix. Di sicuro non è completo come il remix.
Cita messaggio
Grazie da:
#8
ubuntu-restricted-extras
è un altro pacchetto fondamentale. controlla che sia installato. questo magari aiuta:
http://www.istitutomajorana.it/index.php...&Itemid=33
Cita messaggio
Grazie da:
#9
Ho seguito i tuoi consigli. Ora devede mi dice che "potrebbe non esserci spazio per la conversione".
Vedrò dopo le feste. Buon Natale e ancora grazie.
Giampaolo Ranaldi
Cita messaggio
Grazie da:


Vai al forum:


Utenti che stanno guardando questa discussione: 1 Ospite(i)