Consenso all'uso dei cookies

SITO1 -- SITO2 -- Forum1 -- CercaGlobale -- Informativa su Cookie e Privacy


Valutazione discussione:
  • 0 voto(i) - 0 media
  • 1
  • 2
  • 3
  • 4
  • 5
Problema audio con Imagination
#1
Buongiorno a tutti, sto lavorando ad un filmato con foto e audio da assemblare con Imagination. L'importazione delle foto e le operazioni di transizione non mi creano problemi, ma quando cerco di importare dei file audio, in mp3, riscontro dei problemi. Il primo file audio che importo viene inserito nel progetto e anche nel salvataggio, ma se provo ad importare un secondo file audio mi si apre questo messaggio: "La selezione contiene 1 file audio incompatibile con gli altri. Prego cliccare sul tab Audio per maggiori informazioni". Se elimino i file audio presenti nel progetto e provo ad importare il file che mi dava problemi non si riscontrano messaggi di errore.
Qualcuno sa darmi una spiegazione o se salto qualche passaggio?
Grazie
Cita messaggio
Grazie da:
#2
Non che conosca bene Imagination, ma facciamo un tentativo per capire se ci sono e quali errori.
Lancia Imagination dal terminale, lavoraci finchè fai apparire l'errore.
Non chiudere mai il terminale e, quando in Imagination appare l'errore, vedi i relativi messaggi nel terminale stesso
Ciao
Cita messaggio
Grazie da:
#3
Questo è quanto appare nel terminale:

Spoiler :
ffmpeg version 2.5.10-0ubuntu0.15.04.1 Copyright © 2000-2016 the FFmpeg developers
built with gcc 4.9.2 (Ubuntu 4.9.2-10ubuntu13)
configuration: --prefix=/usr --extra-version=0ubuntu0.15.04.1 --build-suffix=-ffmpeg --toolchain=hardened --libdir=/usr/lib/i386-linux-gnu --shlibdir=/usr/lib/i386-linux-gnu --incdir=/usr/include/i386-linux-gnu --enable-gpl --enable-shared --disable-stripping --enable-avresample --enable-avisynth --enable-ladspa --enable-libass --enable-libbluray --enable-libbs2b --enable-libcaca --enable-libcdio --enable-libflite --enable-libfontconfig --enable-libfreetype --enable-libfribidi --enable-libgme --enable-libgsm --enable-libmodplug --enable-libmp3lame --enable-libopenjpeg --enable-libopus --enable-libpulse --enable-libschroedinger --enable-libshine --enable-libspeex --enable-libssh --enable-libtheora --enable-libtwolame --enable-libvorbis --enable-libwavpack --enable-libwebp --enable-libxvid --enable-opengl --enable-x11grab --enable-libdc1394 --enable-libiec61883 --enable-libzvbi --enable-libzmq --enable-frei0r --enable-libvpx --enable-libx264 --enable-libsoxr --enable-gnutls --enable-openal --enable-libopencv --enable-librtmp --enable-libx265
libavutil 54. 15.100 / 54. 15.100
libavcodec 56. 13.100 / 56. 13.100
libavformat 56. 15.102 / 56. 15.102
libavdevice 56. 3.100 / 56. 3.100
libavfilter 5. 2.103 / 5. 2.103
libavresample 2. 1. 0 / 2. 1. 0
libswscale 3. 1.101 / 3. 1.101
libswresample 1. 1.100 / 1. 1.100
libpostproc 53. 3.100 / 53. 3.100
Input #0, image2pipe, from 'pipe:':
Duration: N/A, bitrate: N/A
Stream #0:0: Video: ppm, rgb24, 720x576, 25 fps, 25 tbr, 25 tbn, 25 tbc
Input #1, flac, from '/tmp/img_audio_fifo':
Duration: 00:00:16.63, start: 0.000000, bitrate: N/A
Stream #1:0: Audio: flac, 8000 Hz, mono, s16
[Parsed_setdar_0 @ 0x9647b40] num:den syntax is deprecated, please use num/den or named options instead
Output #0, dvd, to '/home/feanor/Scrivania/progetto arte 5B/Prova Magione.vob':
Metadata:
encoder : Lavf56.15.102
Stream #0:0: Video: mpeg2video, yuv420p, 720x576 [SAR 16:15 DAR 4:3], q=2-31, 6000 kb/s, 25 fps, 90k tbn, 25 tbc
Metadata:
encoder : Lavc56.13.100 mpeg2video
Stream #0:1: Audio: ac3, 48000 Hz, mono, fltp (16 bit), 448 kb/s
Metadata:
encoder : Lavc56.13.100 ac3
Stream mapping:
Stream #0:0 -> #0:0 (ppm (native) -> mpeg2video (native))
Stream #1:0 -> #0:1 (flac (native) -> ac3 (native))


video:19520kB audio:4590kB subtitle:0kB other streams:0kB global headers:0kB muxing overhead: 3.077394%
Received signal 2: terminating.
Cita messaggio
Grazie da:
#4
Scusa, questo postato ha dato errori?
Cita messaggio
Grazie da:
#5
Sì, alla fine nel filmato mancano alcuni brani mp3
Cita messaggio
Grazie da:
#6
Citazione:[Parsed_setdar_0 @ 0x9647b40] num:den syntax is deprecated, please use num/den or named options instead

Secondo me l'errore è da ricercare in questa stringa qua.
Purtroppo non ho la soluzione proprio sottomano.
Ciao
Cita messaggio
Grazie da:


Vai al forum:


Utenti che stanno guardando questa discussione: 1 Ospite(i)