Consenso all'uso dei cookies

SITO1 -- SITO2 -- Forum1 -- CercaGlobale -- Informativa su Cookie e Privacy


Valutazione discussione:
  • 0 voto(i) - 0 media
  • 1
  • 2
  • 3
  • 4
  • 5
from MKV to AVI
#1
Un saluto a tutti!
Come convertitore il mio sistema (ANTIX) possiede installato in default WINFF e leggevo che è tra i migliori nel suo genere...ma si rifiuta di convertire un video MKV ad AVI .Di seguito la schermata che appare:


ffmpeg version 0.8.20-6:0.8.20-0+deb7u1, Copyright © 2000-2014 the Libav developers
  built on Jan 19 2017 12:10:13 with gcc 4.7.2
The ffmpeg program is only provided for script compatibility and will be removed
in a future release. It has been deprecated in the Libav project to allow for
incompatible command line syntax improvements in its replacement called avconv
(see Changelog for details). Please use avconv instead.
[matroska,webm @ 0x84a7840] Unknown/unsupported CodecID V_MPEGH/ISO/HEVC.
[matroska,webm @ 0x84a7840] max_analyze_duration reached
[matroska,webm @ 0x84a7840] Estimating duration from bitrate, this may be inaccurate

Seems stream 0 codec frame rate differs from container frame rate: 1000.00 (1000/1) -> 23.98 (24000/1001)
Input #0, matroska,webm, from '/home/mary/video/The.Middle.H265.720p.Ac3.mkv':
  Duration: 00:23:28.15, start: 0.000000, bitrate: 640 kb/s
    Stream #0.0(eng): Video: [0][0][0][0] / 0x0000, 1280x720, PAR 1:1 DAR 16:9, 23.98 fps, 23.98 tbr, 1k tbn, 1k tbc (default)
    Metadata:
      BPS             : 1314600
      BPS-eng         : 1314600
      DURATION        : 00:23:28.157000000
      DURATION-eng    : 00:23:28.157000000
      NUMBER_OF_FRAMES: 33762
      NUMBER_OF_FRAMES-eng: 33762
      NUMBER_OF_BYTES : 231395426
      NUMBER_OF_BYTES-eng: 231395426
      _STATISTICS_WRITING_APP: mkvmerge v9.6.0 ('Slave To Your Mind') 64bit
      _STATISTICS_WRITING_APP-eng: mkvmerge v9.6.0 ('Slave To Your Mind') 64bit
      _STATISTICS_WRITING_DATE_UTC: 2017-01-12 21:25:06
      _STATISTICS_WRITING_DATE_UTC-eng: 2017-01-12 21:25:06
      _STATISTICS_TAGS: BPS DURATION NUMBER_OF_FRAMES NUMBER_OF_BYTES
      _STATISTICS_TAGS-eng: BPS DURATION NUMBER_OF_FRAMES NUMBER_OF_BYTES
    Stream #0.1(ita): Audio: ac3, 48000 Hz, stereo, s16, 640 kb/s (default)
    Metadata:
      BPS             : 640000
      BPS-eng         : 640000
      DURATION        : 00:23:26.784000000
      DURATION-eng    : 00:23:26.784000000
      NUMBER_OF_FRAMES: 43962
      NUMBER_OF_FRAMES-eng: 43962
      NUMBER_OF_BYTES : 112542720
      NUMBER_OF_BYTES-eng: 112542720
      _STATISTICS_WRITING_APP: mkvmerge v9.6.0 ('Slave To Your Mind') 64bit
      _STATISTICS_WRITING_APP-eng: mkvmerge v9.6.0 ('Slave To Your Mind') 64bit
      _STATISTICS_WRITING_DATE_UTC: 2017-01-12 21:25:06
      _STATISTICS_WRITING_DATE_UTC-eng: 2017-01-12 21:25:06
      _STATISTICS_TAGS: BPS DURATION NUMBER_OF_FRAMES NUMBER_OF_BYTES
      _STATISTICS_TAGS-eng: BPS DURATION NUMBER_OF_FRAMES NUMBER_OF_BYTES
[buffer @ 0x84a9940] Invalid pixel format string '-1'
Error opening filters!
Premere INVIO per continuare

Ho provato ad aggiornare il pacchetto WINFF  nel gestore pacchetti. La definisce versione "oldstable" e non è disponibile l'opzione "forza versione" nel menu.
Cita messaggio
Grazie da:
#2
Ciao,
non uso il programma ma c'è una discussione simile sul Forum 1, magari può esserti utile:
http://www.istitutomajorana.it/forum/Thr...-con-Winff
Cita messaggio
Grazie da:
#3
ho provato il comando consigliato da dxgiusti ma...   mencoder command not found
Cita messaggio
Grazie da:
#4
winff richiede ffmpeg. se la tua non te lo permette non puoi usare winff.
mencoder lo hai installato?
mkv è un contenitore, non è un formato esattamente come avi. fai una prova, rinomina l'estensione da xxxx.mkv in xxxx.avi e prova.
Cita messaggio
Grazie da:
#5
perchè proprio in avi che ormai è un formato obsoleto? se ti accontenti di convertirlo in mp4 ti consiglio https://handbrake.fr/ Tongue
Cita messaggio
Grazie da:
#6
Il problema sta nel riprodurre questo tipo di file nella TV la quale ha sempre e solo riprodotto file avi; per gli mp4...dovrei prima provare.... Per quanto riguarda il video mkv ho provato a rinominare ma niente! Come ho già detto WINFF ha sempre fatto parte di questo SO e guardando sul gestore pacchetti esiste anche ffmpeg. Esiste anche mencoder (6 pacchetti) ma non è installato. Devo installarli tutti?
Cita messaggio
Grazie da:
#7
verifica se sia stato rilasciato un firmware aggiornato per la TV e, nel caso, procedi all'aggiornamento (c'è la possibilità che l'aggiornamento ti dia la possibilità di decodificare anche il contenitore .mkv)
Il mio blog: ZEROZEROCENT.BLOGSPOT.COM
LEGGE DI MURPHY: SE QUALCOSA PUO' ANDAR MALE, LO FARA'
VERSIONE QUANTISTICA DELLA LEGGE DI MURPHY: TUTTO VA MALE CONTEMPORANEAMENTE
Cita messaggio
Grazie da:
#8
Ciao. Da TERMINALE fai

ffmpeg



e vedi se è installato e anche versione..
poi prova:

ffmpeg -i "Origine.xxx" -acodec libmp3lame -ac 2 -ar 44100 -ab 128k -vcodec mpeg4 -vtag DIVX -b:v 4000k -map_metadata 0 "destinazione.avi"


DOVE, "Origine.mkv" deve essere il percorso completo di dove c'è il file MKV: /home/video/.... quelo che sarà
e "destinazione.avi" doe vuoi tu.

inceve, cambiando  4000k  avrai più o meno qualità e dimensione file.
Cita messaggio
Grazie da:
#9
La tv non ha al momento aggiornamenti disponibili ed ecco la risposta al comando di cyberbob:

$ ffmpeg -i home/mary/video/The.Middle.H265.720p.Ac3.mkv -acodec libmp3lame -ac 2 -ar 44100 -ab 128k -vcodec mpeg4 -vtag DIVX -b:v 4000k -map_metadata 0 home/mary/video.avi
ffmpeg version 0.8.20-6:0.8.20-0+deb7u1, Copyright © 2000-2014 the Libav developers
  built on Jan 19 2017 12:10:13 with gcc 4.7.2
The ffmpeg program is only provided for script compatibility and will be removed
in a future release. It has been deprecated in the Libav project to allow for
incompatible command line syntax improvements in its replacement called avconv
(see Changelog for details). Please use avconv instead.
mary/video/The.Middle.H265.720p.Ac3.mkv: No such file or directory
Cita messaggio
Grazie da:
#10
vedi se riesci con questo programma https://miksoft.net/mobileMediaConverterDown.php
Cita messaggio
Grazie da:


Vai al forum:


Utenti che stanno guardando questa discussione: 1 Ospite(i)